#TITLE:Palpitation Zero Distance;
#SUBTITLE:;
#ARTIST:An Yixuan;
#TITLETRANSLIT:Palpitation Zero Distance;
#SUBTITLETRANSLIT:;
#ARTISTTRANSLIT:An Yixuan;
#CREDIT:;
#BANNER:Palpitation Zero Distance-bn.png;
#BACKGROUND:Palpitation Zero Distance-bg.png;
#LYRICSPATH:;
#CDTITLE:pm4cd.png;
#MUSIC:Palpitation Zero Distance.mp3;
#OFFSET:0.080;
#SAMPLESTART:40.670;
#SAMPLELENGTH:20.000;
#SELECTABLE:YES;
#BPMS:0.000=130.010;
#STOPS:;
#BGCHANGES:;
// cache tags:
#FIRSTBEAT:6.250;
#LASTBEAT:398.250;
#SONGFILENAME:Songs/Music V.I.P ^_^/SDO China 21/Palpitation Zero Distance.sm;
#HASMUSIC:1;
#HASBANNER:1;
#MUSICLENGTH:186.566;
// end cache tags

//---------------dance-single - ----------------
#NOTES:
     dance-single:
     :
     Hard:
     21:
     0.954,1.000,1.000,0.054,1.000,933.000,267.000,10.000,0.000,53.000:
0000
0000
0000
0000
,
0000
0000
0000
0000
0000
0000
0000
0000
0000
1000
0001
0100
0001
0010
1000
0100
,
0001
0120
0000
1000
0000
0001
0000
1000
0000
0100
0000
0001
0000
0100
0000
1000
,
0000
0100
0000
1000
0000
0001
0000
0100
0000
0031
0000
0000
0000
0000
0000
0000
,
0000
0210
0000
0001
0000
0010
0000
1000
0000
0001
0000
1000
0000
0010
0000
0001
,
0000
0010
0000
1000
0000
0001
0000
1000
0000
0310
1000
0001
0010
1000
0100
0001
,
0010
0101
0000
0100
0010
1100
0000
0010
0000
1000
0000
0010
0000
0101
0000
0010
,
0000
1010
0000
0010
0100
0011
0000
0100
0000
0001
0000
0100
0000
1010
0000
0100
,
0000
1100
0000
0001
0100
0101
0000
1000
0000
0010
0000
0100
0000
1010
0000
1000
,
0000
0011
0000
1000
0010
1010
0000
0100
0000
0010
0000
0000
0000
0000
0000
0000
,
0000
1000
0000
0001
0000
0100
0000
0001
0000
0010
0000
1000
0000
0100
0000
0001
,
0000
0100
0000
1000
0000
0010
0000
0100
0000
0001
0000
1000
0000
0100
0000
0001
,
0000
1010
0000
0000
0000
0010
0000
0101
0000
0000
0000
0001
0010
1010
0000
0100
,
0000
0101
0000
0010
0000
0110
0010
1000
0000
0001
0000
1000
0000
0110
0100
0000
,
0000
0001
0000
1000
0000
0010
0000
1000
0000
0010
0000
0100
0000
0001
0000
1000
,
0000
0100
0000
0001
0000
1000
0000
0100
0000
0001
0000
1000
0000
0001
0000
0100
,
0000
0101
0000
0000
0000
0100
0000
1010
0000
0000
0000
0100
0100
0101
0000
0000
,
0000
1010
0000
0000
0000
0110
0100
0001
0000
1000
0000
0000
0000
0110
0010
0000
,
0000
0101
0000
0100
0000
0010
0000
1010
0000
0100
0000
0001
0000
0110
0000
1000
,
0000
1010
0000
0010
0000
0100
0000
0101
0000
0010
0000
1000
0000
0110
0000
0001
,
0000
1100
0000
0010
0000
0100
0000
0011
0000
1000
0000
0010
0000
1010
0000
0001
,
0000
0011
0000
0100
0000
0010
0000
1100
0000
0010
0000
1000
0000
0001
0000
0010
,
0000
1000
0000
0110
0000
0010
0000
0101
0000
0010
0000
1010
0000
0010
0000
0011
,
0000
0100
0000
1100
0000
0010
0000
1001
0000
0100
0000
0101
0000
1000
0000
1100
,
0000
0010
0000
1010
0000
0010
0000
0011
0000
1000
0000
0101
0000
0010
0000
0110
,
0000
0001
0000
1010
0000
0100
0000
0101
0000
0001
0000
1010
0000
1000
0000
1100
,
0000
0100
0000
0101
0000
0001
0000
0011
0000
0100
0000
1010
0000
0010
0000
0011
,
0000
0100
0000
1010
0000
0010
0000
0101
0000
0100
0000
1100
0000
0010
0000
0011
,
0000
1000
0000
0101
0000
0010
0000
1010
0000
0010
0000
0011
0000
0100
0000
1100
,
0000
0010
0000
0101
0000
0001
0000
1010
0000
1000
0000
0101
0000
0010
0000
0101
,
0000
0010
0000
0000
0000
0101
0000
1000
0000
0010
0000
1100
0000
0011
0000
0000
,
0000
0101
0000
1000
0000
1100
0000
0010
0000
0100
0000
0011
0000
1100
0000
0000
,
0000
0002
0000
0010
0000
1010
0000
0100
0000
0010
0000
1100
0000
1010
0000
0000
,
0003
1020
0000
0100
0000
0001
0000
1000
0000
0001
0000
0000
1000
0100
0001
0001
,
0100
1030
0000
0010
0000
0100
0000
0001
0000
1000
0000
0001
0000
0010
0000
1000
,
0000
0100
0000
0001
0000
0100
0000
1000
0000
0010
0000
1000
0000
0010
0000
0100
,
0000
1010
0000
0100
0000
0010
0000
0101
0000
0010
0000
0100
1000
1010
0000
0100
,
0000
0011
0000
0001
0000
1100
0100
1000
0000
0010
0000
0001
0000
1010
0010
0000
,
0000
0100
0000
0001
0000
0100
0000
1000
0000
0001
0000
0010
0000
1000
0000
0001
,
0000
0010
0000
0100
0000
0001
0000
0100
0000
0010
0000
1000
0000
0001
0000
0100
,
0000
0101
0000
1000
0000
0100
0000
1010
0000
0001
0000
1000
1000
1100
0000
0010
,
0000
1001
0000
0100
0000
0011
0010
0100
0000
0001
0000
0010
0000
1100
1000
0001
,
0000
0110
0000
0101
0000
1010
0000
1100
0000
0110
0000
0011
0000
1010
0000
0110
,
0000
0101
0000
1001
0000
0110
0000
0101
0000
0011
0000
1100
0000
0110
0000
1001
,
0000
1100
0000
0011
0000
0101
0000
0011
0000
1001
0000
0110
0000
1010
0000
1001
,
0000
0011
0000
0110
0000
1010
0000
2100
0000
0010
0000
0001
0000
0010
0000
0100
,
0000
0000
0000
0000
0000
0100
0001
0100
0000
0001
0010
0001
0000
0001
0100
0010
,
0000
3101
0000
0011
0000
0100
0000
1010
0000
0100
0000
0101
0000
1000
0000
0110
,
0000
0001
0000
1010
0000
0100
0000
1001
0000
0010
0000
0101
0000
0100
0000
0011
,
0000
0100
0000
1010
0000
0001
0000
1100
0000
0010
0000
1001
0000
0100
0000
0101
,
0000
0010
0000
1100
0000
0010
0000
1001
0000
0010
0000
0110
0000
0001
0000
1010
,
0000
1000
0000
0101
0000
0010
0000
0011
0000
1000
0000
1001
0000
0010
0000
0011
,
0000
0100
0000
1010
0000
0010
0000
1001
0000
0010
0000
1100
0000
0001
0000
0110
,
0000
1000
0000
0011
0000
0100
0000
1100
0000
0001
0000
0101
0000
1000
0000
1010
,
0000
0010
0000
0101
0000
0010
0000
0110
0000
0001
0000
1100
0000
0010
0000
1001
,
0000
0010
0000
1000
0000
0010
0100
0000
0010
1000
0100
0001
0000
0100
0000
0010
,
0000
1000
0000
0001
0010
1000
0100
0000
0010
1000
0001
0010
0000
0100
0000
0010
,
0100
0001
0000
0100
0000
1000
0100
0000
0010
0001
0100
0010
0000
1000
0100
0000
,
0001
0010
0000
0100
0001
0000
0010
1000
0000
0100
0010
0000
0100
1000
0010
0001
,
0100
0010
0000
1000
0000
0001
0010
0000
0100
0010
1000
0100
0000
0001
0010
0000
,
0100
0010
0000
1000
0000
0010
0100
0000
0001
0010
1000
0010
0000
0100
0000
0010
,
0000
1000
0001
0010
0000
0100
0010
0000
0100
1000
0010
0001
0000
0100
1000
0000
,
0010
0001
0010
0100
0000
1000
0010
0000
0100
0010
0001
0000
0010
0100
1000
0010
,
0001
1010
0000
0100
0000
0010
0000
0101
0000
0010
0000
0001
0000
1000
0000
0010
,
0000
0101
0000
0010
0000
1000
0000
1010
0000
0001
0000
1000
0000
0010
0000
0001
,
0000
1010
0000
0010
0000
0101
0000
0001
0000
0100
0000
1000
0000
0001
0000
0100
,
0000
1010
0000
0100
0000
0001
0000
0110
0000
1000
0000
0010
0000
0001
0000
0100
,
0000
0101
0000
0010
0000
1000
0000
0011
0000
0100
0000
0010
0000
0001
0000
1000
,
0000
0110
0000
1000
0000
0001
0000
0110
0000
0001
0000
1000
0000
0010
0000
0100
,
0000
0001
0000
1000
0000
0010
0000
0110
0000
1000
0000
0001
0000
0100
0000
0001
,
0000
1010
0000
0010
0000
0001
0000
0110
0000
1000
0000
0010
0000
0200
0000
0000
,
0000
0000
0000
0000
0000
0000
0000
0000
0000
1310
0010
0100
0010
0001
1000
0110
,
0001
0100
0001
1000
0100
0001
1000
0010
0100
0011
1000
0100
0001
0010
1000
1100
,
0001
0010
1000
0010
1000
0001
0100
0010
1000
0011
0001
0100
0010
1000
0001
0110
,
1000
0100
0001
1000
0100
0001
0010
1000
0100
0101
0010
1000
0100
0010
0100
1010
,
0001
0010
1000
0100
0001
1000
0100
0001
1000
0110
0100
1000
0001
0010
1000
0011
,
0001
0100
0010
1000
0001
0100
1000
0001
0100
1010
1000
0001
0100
0010
0001
0011
,
1000
0001
0010
1000
0010
0100
0010
1000
0001
0110
1000
0100
0001
0010
1000
0101
,
0001
0010
1000
0010
0001
0100
1000
0100
0001
1010
1000
0010
0100
0010
1000
0101
,
0010
1000
0100
0010
0100
0001
1000
0010
0100
0001
0000
0000
0000
0000
0000
0000
,
0000
0010
0100
1000
0101
1010
0101
1010
0000
0111
0000
1100
0000
1110
0000
0011
,
0000
1101
0000
0011
0000
1011
0000
0110
0000
1110
0000
0011
0000
0111
0000
0110
,
0000
1101
0000
0110
0000
1011
0000
0110
0000
1011
0000
1100
0000
1101
0000
0110
,
0000
1011
0000
0110
0000
0111
0000
1010
0000
1110
0000
0101
0000
1101
0000
1001
,
0000
1110
0000
0110
0000
1101
0000
0011
0000
1011
0000
0110
0000
1110
0000
0011
,
0000
0111
0000
1100
0000
1110
0000
0101
0000
1011
0000
1010
0000
1101
0000
0110
,
0000
0111
0000
1100
0000
1110
0000
0101
0000
1011
0000
0110
0000
1101
0000
0110
,
0000
1110
0000
1100
0000
0111
0000
1010
0000
1110
0000
0011
0000
0111
0000
1010
,
0000
1101
0000
0110
0000
1011
0000
0110
0000
0211
1000
0001
0010
1000
0010
1001
,
1000
0010
0001
1000
0001
0010
1000
0001
1000
1001
0010
1000
0010
0001
1000
0011
,
0010
1000
0001
0010
1000
0010
0001
1000
0010
1312
0010
0100
0010
1000
0100
0110
,
0100
1000
0010
0100
0010
1000
0010
0100
1000
1010
0100
0010
1000
0100
1000
0110
,
0100
1000
0100
0010
1000
0010
0100
1000
0010
2113
0001
0010
0100
0001
0010
0101
,
0100
0010
0001
0100
0001
0100
0010
0001
0010
0101
0100
0010
0000
0100
0001
0011
,
0100
0001
0010
0100
0001
0010
0100
0001
0100
3121
0001
1000
0100
0001
1000
1001
,
0100
1000
0001
0100
1000
0001
1000
0001
0100
1100
0001
0100
0001
1000
0001
1001
,
0100
0001
1000
0100
0001
0100
1000
0001
0100
0031
0000
1000
0000
0000
0010
0100
,
0000
0000
0010
0000
0000
1000
0000
0000
0000
0010
0000
0000
0000
1000
0100
0000
,
0000
0000
0010
0000
0000
0001
0000
0000
0000
0100
0000
0000
0000
0010
0100
0000
,
0000
0000
0001
0000
0000
0100
0000
0000
0000
0001
0000
0000
0000
0000
0000
0000
;
